Gray Divorce What We Lose And Gain From Mid-Life Splits
Noha sina zani sakina dokhatare shah shahidan reza noori

18+ The Housemaid 2016 UNCENSORED Movies HDRip x264 5.1 with Samp...

  • Category Movies
  • Type HD
  • Language English
  • Total size 846.2 MB
  • Uploaded By nehalpuja
  • Downloads 18610
  • Last checked 1 day ago
  • Date uploaded 1 month ago
  • Seeders 24
  • Leechers 7

Infohash : 9D7B2E7AEE337D654C4E16819D28CE0FF8E24079

18+ The Housemaid 2016 UNCENSORED Movies HDRip x264 5.1 with Sample ☻rDX☻
===============================================================================================

SCREEN SHOTS:



or

http://postimage.co.nr/2018/2a/savings/1.html

File size : 838 MiB
Duration : 1 h 44 min
Overall bit rate mode : Constant
Overall bit rate : 1 123 kb/s
Movie name : 18+ The Housemaid 2016 UNCENSORED Movies HDRip x264 5.1 ☻rDX☻

Video
ID : 2
Format : AVC
Format/Info : Advanced Video Codec
Format profile : [email protected]
Format settings, CABAC : Yes
Format settings, ReFrames : 2 frames
Format settings, GOP : M=1, N=12
Codec ID : V_MPEG4/ISO/AVC
Duration : 1 h 44 min
Bit rate mode : Constant
Bit rate : 740 kb/s
Width : 720 pixels
Height : 296 pixels
Display aspect ratio : 2.40:1
Original display aspect ratio : 2.40:1
Frame rate mode : Constant
Frame rate : 24.000 FPS
Color space : YUV
Chroma subsampling : 4:2:0
Bit depth : 8 bits
Scan type : Progressive
Bits/(Pixel*Frame) : 0.145
Stream size : 535 MiB (64%)
Title : ☻rDX☻
Default : Yes
Forced : No

Audio
ID : 1
Format : AC-3
Format/Info : Audio Coding 3
Mode extension : CM (complete main)
Format settings, Endianness : Big
Codec ID : A_AC3
Duration : 1 h 44 min
Bit rate mode : Constant
Bit rate : 384 kb/s
Channel(s) : 6 channels
Channel positions : Front: L C R, Side: L R, LFE
Sampling rate : 48.0 kHz
Frame rate : 31.250 FPS (1536 spf)
Bit depth : 16 bits
Compression mode : Lossy
Stream size : 287 MiB (34%)
Title : ☻rDX☻
Language : English
Default : Yes
Forced : No



IMDB : http://www.imdb.com/title/tt5860084

Files:

18+ The Housemaid 2016 UNCENSORED Movies HDRip x264 5.1 with Sample ☻rDX☻
  • Sample ~ 18+ The Housemaid 2016 UNCENSORED Movies HDRip x264 5.1 ☻rDX☻.mkv (7.7 MB)
  • 18+ The Housemaid 2016 UNCENSORED Movies HDRip x264 5.1 ☻rDX☻.mkv (838.5 MB)

There are currently no comments. Feel free to leave one :)

Code:

  • udp://tracker.coppersurfer.tk:6969/announce
  • udp://tracker.openbittorrent.com:80/announce
  • udp://glotorrents.pw:6969/announce
  • udp://tracker.publicbt.com:80/announce
  • http://retracker.krs-ix.ru/announce
  • udp://tracker.pomf.se:80/announce
  • udp://explodie.org:6969/announce
  • http://mgtracker.org:2710/announce
  • http://tracker.aletorrenty.pl:2710/announce
  • http://tracker.btcake.com/announce
  • udp://tracker.openbittorrent.com:80/announce
  • udp://tracker.leechers-paradise.org:6969/announce
  • udp://coppersurfer.tk:6969/announce