Kalimba Riana Macan Cilik Banyu Langit | Dark Crimes streaming francais | Hitman Agent 47 20

Hansel & Gretel: Witch Hunters (2013) Dual Audio Hindi 720p BluRa...

  • Category Movies
  • Type Dubs/Dual Audio
  • Language Hindi
  • Total size 990.0 MB
  • Uploaded By KatMaster
  • Downloads 2273
  • Last checked 1 day ago
  • Date uploaded 1 month ago
  • Seeders 4
  • Leechers 2

Hansel & Gretel: Witch Hunters

ActionFantasyHorror

After getting a taste for blood as children, Hansel and Gretel have become the ultimate vigilantes, hell-bent on retribution. Now, unbeknownst to them, Hansel and Gretel have become the hunted, and must face an evil far greater than witches... their past.

Infohash : 34A6A96B64B17A97AC7BE25AF162E5D3B7137A9A



Code:

[FORMAT]:…………………….[ Matroska
[ENCODER]:…………..[ KatMaster
[THANKS TO]:…………………..[ HKRG (for Hindi Audio)





Hansel & Gretel are bounty hunters who track and kill witches all over the world. As the fabled Blood Moon approaches, the siblings encounter a new form of evil that might hold a secret to their past.


Movie Info:

Genres: Action, Fantasy, Horror
Directed by: Tommy Wirkola
Writer: Tommy Wirkola
Stars Cast: Jeremy Renner, Gemma Arterton, Peter Stormare
IMDb: http://www.imdb.com/title/tt1428538/
Language: Hindi + English

Video
ID                          : 1
Format                      : AVC
Format/Info                 : Advanced Video Codec
Format profile              : [email protected]
Format settings, CABAC      : Yes
Format settings, RefFrames  : 9 frames
Codec ID                    : V_MPEG4/ISO/AVC
Duration                    : 1 h 37 min
Bit rate                    : 1 000 kb/s
Width                       : 1 280 pixels
Height                      : 534 pixels
Display aspect ratio        : 2.40:1
Frame rate mode             : Constant
Frame rate                  : 23.976 (24000/1001) FPS
Color space                 : YUV
Chroma subsampling          : 4:2:0
Bit depth                   : 8 bits
Scan type                   : Progressive
Bits/(Pixel*Frame)          : 0.061
Stream size                 : 702 MiB (71%

Audio #1 (Hindi)
ID                          : 2
Format                      : AC-3
Format/Info                 : Audio Coding 3
Format settings, Endianness : Big
Codec ID                    : A_AC3
Duration                    : 1 h 37 min
Bit rate mode               : Constant
Bit rate                    : 224 kb/s
Channel(s)                  : 6 channels
Channel positions           : Front: L C R, Side: L R, LFE
Sampling rate               : 48.0 kHz
Frame rate                  : 31.250 FPS (1536 SPF)
Bit depth                   : 16 bits
Compression mode            : Lossy
Delay relative to video     : 1 s 0 ms
Stream size                 : 154 MiB (16%)

Audio #2 (English)
ID                          : 3
Format                      : AAC
Format/Info                 : Advanced Audio Codec
Format profile              : HE-AAC / LC
Codec ID                    : A_AAC
Duration                    : 1 h 37 min
Bit rate                    : 192 kb/s
Channel(s)                  : 6 channels
Channel positions           : Front: L C R, Side: L R, LFE
Sampling rate               : 48.0 kHz / 24.0 kHz
Frame rate                  : 23.438 FPS (1024 SPF)
Compression mode            : Lossy
Delay relative to video     : 31 ms
Stream size                 : 132 MiB (13%)


Screenshots:






Files:

Hansel & Gretel Witch Hunters (2013) Dual Audio Hindi 720p BluRay ESubs
  • Hansel & Gretel Witch Hunters (2013) Dual Audio Hindi 720p BluRay ESubs.mkv (990.0 MB)
  • Website.txt (0.2 KB)

There are currently no comments. Feel free to leave one :)

Code:

  • udp://tracker.coppersurfer.tk:6969/announce
  • udp://tracker.ilibr.org:6969/announce
  • udp://tracker.ilibr.org:80/announce
  • udp://tracker.opentrackr.org:1337/announce
  • udp://zer0day.to:1337/announce
  • udp://tracker.zer0day.to:1337/announce
  • udp://p4p.arenabg.com:1337/announce
  • udp://p4p.arenabg.ch:1337/announce
  • udp://tracker.leechers-paradise.org:6969/announce
  • udp://explodie.org:6969/announce
  • udp://9.rarbg.to:2710/announce
  • udp://eddie4.nl:6969/announce
  • udp://9.rarbg.to:2770/announce